메뉴
 
작성일 : 17-01-12 19:28
Taboo.S01E01.1080p.AMZN.WEBRip.DD.5.1.HEVC.x265.sharpysword
글쓴이 : 익명
조회 : 21  
다운로드 : Taboo.S01E01.1080p.AMZN.WEBRip.DD.5.1.HEVC.x265.sharpysword.torrent (24.8k)
Taboo 토렌트 torrent



Source:Taboo.UK.S01E01.Shovels.and.Keys.1080p.AMZN.WEBRip.DD.5.1.x264.CasStudio.mkv
Duration: 00:55:04.13, start: 0.000000, bitrate: 3031 kb/s
Stream #0:0(eng): Video: hevc (Main), yuv420p(tv), 1920x1080 [SAR 1:1 DAR 16:9], 25 fps, 25 tbr, 1k tbn, 25 tbc (default


Stream #0:1(eng): Audio: eac3, 48000 Hz, 5.1(side), fltp, 640 kb/s (default)

170110 170111 170112 Taboo 감상, 토렌트, torrent

 

Total. 50,208
번호 제   목 글쓴이 날짜
50208 제국의눈물(홍장녹와) 2014 자체한글 익명 11:28
50207 The.Shield.COMPLETE.DVDRip.XviD-Rogue 익명 11:28
50206 [한글] Marvels.Iron.Fist.S01E05.720p.WEBRip.x264-SKGTV 익명 11:28
50205 [한글] 워킹데드 The.Walking.Dead.S07E15.HDTV.x264-SVA 익명 11:28
50204 [한글] 워킹데드 The.Walking.Dead.S07E15.1080p.WEB-DL.DD5.1.H264-RARBG 익명 11:28
50203 플래쉬 시즌1.2014.720p.HDTV.X264 DIMENSION 한글 익명 03-27
50202 [한글자막] Designated.Survivor.S01E13.Backfire.720p.AMZN.WEBRip.DD+5.1.x264 익명 03-27
50201 NCIS.Los.Angeles.S08E19.1080p.HDTV.X264 익명 03-27
50200 Impractical.Jokers.S06E06.720p.HDTV.x264-W4F 익명 03-27
50199 The.Arrangement.S01E04.720p.HDTV.x264 익명 03-27
50198 The.Arrangement.S01E04.HDTV.x264 익명 03-27
50197 Smallville.Season.2.x264 익명 03-27
50196 The Dead Files Season 9 Complete HDTV x264 익명 03-27
50195 Homeland.S06E10.1080p.WEBRip.X264-DEFLATE 익명 03-27
50194 워킹 데드 The.Walking.Dead.S07E15.720p / 1080p.WEB-DL.DD5.1.H264-RARBG 익명 03-27
50193 워킹 데드 The.Walking.Dead.S07E15.Something.They.Need.1080p.WEBRip.x264-WEBSTER 익명 03-27
50192 워킹 데드 The.Walking.Dead.S07E15.WEB-DL.x264-RARBG 익명 03-27
50191 Chicago.Justice.S01E06.WEB-DL.x264-RARBG 익명 03-27
50190 Into.the.Badlands.S02E02.WEB-DL.x264-RARBG 익명 03-27
50189 Homeland.S06E10.WEBRip.X264-RARBG 익명 03-27
50188 Once.Upon.a.Time.S06E14.WEB-DL.x264-RARBG 익명 03-27
50187 Believer.with.Reza.Aslan.S01E04.720p.HDTV.x264-W4F 익명 03-27
50186 Believer.with.Reza.Aslan.S01E04.HDTV.x264-W4F 익명 03-27
50185 폰용.워킹데드]The.Walking.Dead.S07E15.WEB-DL.XviD-FUM[ettv] 익명 03-27
50184 폰용.워킹데드]The.Walking.Dead.S07E15.WEB-DL.x264-FUM[ettv] 익명 03-27
 1  2  3  4  5  6  7  8  9  10    
 
torrentdream.com | fulcrum-studios.com | tnori.kr | yukatagirl.com | hlive.co.kr | navidisk.com | 0service.com | donghaebada.com | 8xom.com
Copyright ⓒ http://googledomainz.com. All rights reserved.