메뉴
 
작성일 : 17-01-12 19:28
Taboo.S01E01.1080p.AMZN.WEBRip.DD.5.1.HEVC.x265.sharpysword
글쓴이 : 익명
조회 : 14  
다운로드 : Taboo.S01E01.1080p.AMZN.WEBRip.DD.5.1.HEVC.x265.sharpysword.torrent (29.2k)
Taboo 토렌트 torrent



Source:Taboo.UK.S01E01.Shovels.and.Keys.1080p.AMZN.WEBRip.DD.5.1.x264.CasStudio.mkv
Duration: 00:55:04.13, start: 0.000000, bitrate: 3031 kb/s
Stream #0:0(eng): Video: hevc (Main), yuv420p(tv), 1920x1080 [SAR 1:1 DAR 16:9], 25 fps, 25 tbr, 1k tbn, 25 tbc (default


Stream #0:1(eng): Audio: eac3, 48000 Hz, 5.1(side), fltp, 640 kb/s (default)

170110 170111 170112 Taboo torrent, magnet, 사이트

 

Total. 47,084
번호 제   목 글쓴이 날짜
47084 Outsiders.S02E05.1080p.WEB.h264-JAWN 익명 19:28
47083 Bates.Motel.S05E01.WEBRip.x264-RARBG 익명 19:28
47082 Bones.S12E08.1080p / 720p.WEB-DL.DD5.1.H264-NTb | RARBG 익명 19:28
47081 Impractical.Jokers.S06E02.1080p / 720p.WEB-DL.AAC2.0.H264-ViSUM 익명 19:28
47080 Chicago.Fire.S05E14.WEB-DL.x264-RARBG 익명 19:28
47079 Chicago.Fire.S05E14.Purgatory.720p.WEB-DL.DD5.1.H264-NTb 익명 19:28
47078 Chicago.Fire.S05E14.Purgatory.1080p.WEB-DL.DD5.1.H264-NTb 익명 19:28
47077 Home.And.Away.S30E013.720p / HDTV.x264-FiHTV 익명 19:28
47076 Impractical.Jokers.S06E01.Swim.Shady.720p.WEB-DL.AAC2.0.H264-ViSUM 익명 19:28
47075 Impractical.Jokers.S06E01.Swim.Shady.1080p.WEB-DL.AAC2.0.H264-ViSUM 익명 19:28
47074 The.Detour.S02E01 - E02.720p.HDTV.2CH.x265.HEVC-PSA 익명 19:28
47073 Switched.at.Birth.S05E04.WEBRip.x264-RARBG 익명 19:28
47072 Switched.at.Birth.S05E04.Relation.of.Lines.and.Colors.720p.FREE.WEBRip 익명 19:28
47071 Bones.S12E08.720p / HDTV.x264-FLEET 익명 19:28
47070 Switched.at.Birth.S05E04.720p / HDTV.x264-SVA | FLEET 익명 19:28
47069 Outsiders.2016.S02E05.720p.HDTV.x264-AVS 익명 19:28
47068 The.Real.ONeals.S02E13.720p / HDTV.x264-KILLERS 익명 19:28
47067 The.Detour.S02E01.HDTV.x264-LOL 익명 19:28
47066 The.Detour.S02E01.720p.HDTV.X264-DIMENSION 익명 19:28
47065 The.Detour.S02E01.1080p.HDTV.X264-DIMENSION 익명 19:28
47064 Teachers.2016.S02E06.720p / HDTV.x264-FLEET 익명 19:28
47063 The Flash 2014 S03E13 720p HDTV MkvCage 익명 19:28
47062 Outsiders.S02E04.720p.WEBRip.2CH.x265.HEVC-PSA 익명 19:28
47061 Bull.2016.S01E15.HDTV.x264-LOL 익명 19:28
47060 Outsiders.2016.S02E05.HDTV.x264-KILLERS 익명 19:28
 1  2  3  4  5  6  7  8  9  10    
 
torrentdream.com | fulcrum-studios.com | tnori.kr | yukatagirl.com | hlive.co.kr | navidisk.com | 0service.com | donghaebada.com | 8xom.com
Copyright ⓒ http://googledomainz.com. All rights reserved.