메뉴
 
작성일 : 17-01-12 19:28
Taboo.S01E01.1080p.AMZN.WEBRip.DD.5.1.HEVC.x265.sharpysword
글쓴이 : 익명
조회 : 11  
다운로드 : Taboo.S01E01.1080p.AMZN.WEBRip.DD.5.1.HEVC.x265.sharpysword.torrent (27.9k)
Taboo 토렌트 torrent



Source:Taboo.UK.S01E01.Shovels.and.Keys.1080p.AMZN.WEBRip.DD.5.1.x264.CasStudio.mkv
Duration: 00:55:04.13, start: 0.000000, bitrate: 3031 kb/s
Stream #0:0(eng): Video: hevc (Main), yuv420p(tv), 1920x1080 [SAR 1:1 DAR 16:9], 25 fps, 25 tbr, 1k tbn, 25 tbc (default


Stream #0:1(eng): Audio: eac3, 48000 Hz, 5.1(side), fltp, 640 kb/s (default)

170110 170111 170112 Taboo 다운로드, 사이트, 토렌트

 

Total. 44,961
번호 제   목 글쓴이 날짜
44961 [영드/한글자막] 셜록 시즌4 1~3 화 합본 입니다! 익명 01-18
44960 Westworld.S01.1080p / 720p.AMZN.WEBRip.DD5.1.x264-FGT 익명 01-18
44959 조씨고아 31~45편 자체한글 익명 01-18
44958 New.Girl.S06E13.720p.HDTV.2CH.x265.HEVC-PSA 익명 01-18
44957 Celebrity.Big.Brother.S19E17.HDTV.x264 익명 01-18
44956 Dance.Moms.S07E08.720p.WEB.h264-HEAT 익명 01-18
44955 Vanderpump.Rules.S05E11.The.D.Pic.HDTV.x264-CRiMSON 익명 01-18
44954 Sherlock Season 4 1080p / 720p HDTV x265 HEVC - ShAaNiG 익명 01-18
44953 This.Hour.Has.22.Minutes.S24E12.HDTV.x264-CROOKS 익명 01-18
44952 Forged.in.Fire.S03E12.The.Zweihander.iNTERNAL.720p.HDTV.x264-DHD 익명 01-18
44951 Ballers.2015.S02.720p / BluRay.x264-DEMAND 익명 01-18
44950 콰르텟 1화 四重奏.Quartet.Ep01.Chi_Jap.HDTVrip.1280X720-ZhuixinFan.mp4 익명 01-18
44949 Timeless.S01E11.WEB-DL.XviD-FUM 익명 01-18
44948 Killing.Fields.S02E0 - E02.1080p.DISC.WEBRip.AAC2.0.x264-AJP69 익명 01-18
44947 The.Curse.of.Oak.Island.S04E10.720p / HDTV.x264-KILLERS 익명 01-18
44946 The Last Word with Lawrence ODonnell 2017 01 16 720p WEBRip x264-LM 익명 01-18
44945 Good.Behavior.S01E10.REPACK.720p / HDTV.x264-FLEET 익명 01-18
44944 Workin.Moms.S01E02.720p / HDTV.x264-FLEET 익명 01-18
44943 Americas.Next.Top.Model.S23E06.720p / HDTV.x264-CRiMSON 익명 01-18
44942 AFTERMATH Season 1 S01 720p Web 익명 01-18
44941 Marvels.Agents.of.S.H.I.E.L.D.S04E10.720p.HDTV.X264-DIMENSION 익명 01-18
44940 Marvels Agents of S.H.I.E.L.D S04E10 720p HDTV 320MB MkvCage 익명 01-18
44939 Marvels: Agents of S.H.I.E.L.D. S04E10 720p HDTV x265 HEVC 215MB - ShAaNiG 익명 01-18
44938 NCIS.New.Orleans.S03E11.1080p.HDTV.X264-DIMENSION 익명 01-17
44937 행복의 기억 SP. 幸福的记忆.Shiawase.no.Kioku.SP.Chi_Jap.HDTVrip.852X480-ZhuixinFan.mp4 익명 01-17
 1  2  3  4  5  6  7  8  9  10    
 
torrentdream.com | fulcrum-studios.com | tnori.kr | yukatagirl.com | hlive.co.kr | navidisk.com | 0service.com | donghaebada.com | 8xom.com
Copyright ⓒ http://googledomainz.com. All rights reserved.